Гости, рекомендуем зайти на сайт, тогда не будет такой навязчивой рекламы! rssRSS

Смешарики. 216 серий + Пин-код, Новые приключения, Смешалости в 3D + Азбуки без заставок

Смешарики. 216 серий + Пин-код, Новые приключения, Смешалости 164 серий в 3D + Азбуки 62 серии [без заставок/титр (3D)] (2003-2016) DVDRip
 Торрент:   Зарегистрирован Скачать
.torrent
243 KB
 Зарегистрирован:   21 Мар 2017 16:36:54
 Статус:   Скачать без регистрации
 Размер:   41,6 GB

Раздача ведется путем добавления новых серий

Раздача обновлена 21.03.17
Добавлены новые серии: «Пин-код - 85. Петя Юрского Периода_HDTVRip.avi», «Пин-код - 86. Планета под ключ_SATRip.avi», «Пин-код - 87. А теперь улыбнитесь_SATRip.avi», «Пин-код - 88. Титаны древности_SATRip.avi», а также «Спорт - 01. Слишком быстрый_HDTVRip.avi», «Спорт - 02. Приёмчики_HDTVRip.avi», «Спорт - 03. Так и делай_HDTVRip.avi», «Спорт - 04. Ради здоровья_HDTVRip.avi», «Спорт - 05. Притяжение земли_SATRip.avi», «Спорт - 06. Только сеть разделяет нас_SATRip.avi», «Спорт - 07. Бадминтон_HDTVRip.avi», «Спорт - 08. Супермегаэкстрапрофи_HDTVRip.avi», «Спорт - 09. Мечта всей жизни_HDTVRip.avi» и «Спорт - 10. Объясняйтесь лыжами_HDTVRip.avi»
Год выпуска: 2003-2017
Жанр: Детский, Компьютерная анимация

Режиссеры: Денис Чернов, Илья Максимов, Алексей Горбунов, Джангир Сулейманов, Алексей Лебедев, Дмитрий Яковенко, Константин Бирюков, Наталья Мирзоян, Алексей Минченок, Катерина Савчук, Марина Машкова, Олег Мусин…

Персонажи: Крош (Антон Виноградов), Ёжик (Владимир Постников), Нюша (Светлана Письмиченко), Бараш (Вадим Бочанов) и Копатыч (Михаил Черняк), Совунья (Сергей Мардарь), Лосяш (Михаил Черняк), Кар-Карыч (Сергей Мардарь), Пин (Михаил Черняк), а также Ушарик (Владимир Маслаков), Чёрный Ловелас (Антон Виноградов), Муля (Валерий Соловьёв) и Муня (Елена Шульман), Мышарик (Владимир Маслаков), Тигриция (Анна Геллер), Хрум (Ксения Бржезовская), Шуша (Сауле Искакова), Панди (Ксения Бржезовская) и др.

Описание: Все 216 серии основного выпуска в 2D, а также серии 3D Пин-код, Новые приключения, Смешалости и Азбуки, везде вырезаны заставки,а в сериях 3D вырезаны и титры. Мультсериал рассказывает о Смешариках — забавных круглых существах, живущих в собственном вымышленном мире. Их форма подчёркивает доброту и позволяет легко нарисовать Смешариков даже ребёнку. У каждого из них есть история жизни и свой индивидуальный характер. Среди Смешариков нет отрицательных персонажей, если не считать злобного клона Лосяша, появляющегося всего в одной серии. Почти каждая серия построена на какой-то проблемной ситуации, которая может встретиться ребёнку в жизни. За внешней простотой и детской наивностью сюжета скрываются вполне серьёзные и даже философские темы, поэтому мультфильм часто смотрят даже взрослые. В сериале содержатся многочисленные цитаты из фильмов и мультфильмов, ставших классикой.

Продолжительность: 230 х 00:06:09 + 3D: 139 х 00:11:40

Перевод: Не требуется
Видео: XviD; ~1500 — 1981 Кбит/сек; 720 х 400, 704 х 400; DVDRip [некоторые серии из папки 3D — SATRip/HDTVRip (файлы подписаны)]
Аудио: MP3, 2 ch; 112 — 192 Кбит/сек

Скриншоты:
MediaInfo
Общее
Полное имя :Все файлы идентичны!
Формат : AVI
Формат/Информация : Audio Video Interleave
Размер файла : 99,0 Мбайт
Продолжительность : 6 м. 9 с.
Общий поток : 2246 Кбит/сек
Программа кодирования : Lavf51.12.1
Видео Идентификатор : 0
Формат : xvid
Идентификатор кодека : xvid
Продолжительность : 6 м. 9 с.
Битрейт : 2121 Кбит/сек
Ширина : 720 пикселей
Высота : 400 пикселей
Соотношение сторон : 16:9
Частота кадров : 25,000 кадров/сек
Бит/(Пиксели*Кадры) : 0.295
Размер потока : 93,5 Мбайт (94%)
Аудио Идентификатор : 1
Формат : MPEG Audio
Версия формата : Version 1
Профиль формата : Layer 3
Режим : Joint stereo
Расширение режима : MS Stereo
Идентификатор кодека : 55
Идентификатор кодека/Подсказка : MP3
Продолжительность : 6 м. 9 с.
Вид битрейта : Постоянный
Битрейт : 112 Кбит/сек
Каналы : 2 канала
Частота : 44,1 КГц
Метод сжатия : С потерями
Размер потока : 4,94 Мбайт (5%)
Выравнивание : Соединение по промежуткам
Продолжительность промежутка : 26 мс. (0,65 видеокадр)
Библиотека кодирования : LAME3.97
Главные роли озвучивали:


Время раздачи: по возможности
Печать или PDF
Скидки в Юлмарте! Получить »»

Будет интересно:

Этот сайт защищен «Site Guard»
Яндекс.Метрика
установить счетчик посещений

Используя данные с этого сайта обязательно указывать мою монограмму (©ШвЕц АрТёМ) и ссылку на этот сайт!